<?xml version="1.0" encoding="UTF-8" standalone="no"?>
<!DOCTYPE svg  PUBLIC '-//W3C//DTD SVG 1.1//EN'  'http://www.w3.org/Graphics/SVG/1.1/DTD/svg11.dtd'>
<svg xmlns="http://www.w3.org/2000/svg">
<defs>
<font id="SOULMATESLETTER-Regular" horiz-adv-x="175">
<font-face underline-position="-50" font-weight="400" descent="0" panose-1="2 0 0 0 0 0 0 0 0 0" units-per-em="1000" unicode-range="U+0020-2212" bbox="-16 -148 410 700" x-height="431" underline-thickness="50" font-family="SOULMATESLETTER" ascent="1000" cap-height="476"/>
<missing-glyph horiz-adv-x="1000"/>
<glyph glyph-name=".notdef" horiz-adv-x="1000"/>
<glyph glyph-name=".null" horiz-adv-x="0"/>
<glyph glyph-name="nonmarkingreturn" horiz-adv-x="333"/>
<glyph glyph-name="space" horiz-adv-x="150" unicode=" "/>
<glyph glyph-name="exclam" horiz-adv-x="75" unicode="!" d="M36 27q-15 0 -15 15q0 16 15 16q16 0 16 -16q0 -15 -16 -15zM50 476l-5 -405h-17l-4 405h26z"/>
<glyph glyph-name="quotedbl" horiz-adv-x="108" unicode='&quot;' d="M66 474h13v-74h-13v74zM34 474h13v-74h-13v74z"/>
<glyph glyph-name="numbersign" horiz-adv-x="205" unicode="#" d="M98 179l40 112h-30l-40 -112h30zM115 359h17l-19 -54h30l19 54h16l-19 -54h36l-5 -14h-36l-40 -112h38l-5 -14h-38l-19 -53h-16l19 53h-30l-20 -53h-16l19 53h-36l4 14h37l40 112h-39l5 14h39z"/>
<glyph glyph-name="dollar" horiz-adv-x="135" unicode="$" d="M94 112q-8 38 -24 69l-9 -155q35 2 35 56q0 14 -2 30zM22 357q0 -42 33 -104l11 176q-43 -14 -44 -72zM67 449l2 27h19l-2 -25h15l16 10v-64h-16q-5 29 -16 33l-12 -208q36 -65 43 -107q2 -16 2 -25q0 -34 -14 -58.5t-44 -25.5l-1 -14h-19l2 16q-3 1 -9.5 3t-9.5 3.5 t-4 4.5v-19h-19v77h19q0 -31 24 -50l10 185q-1 2 -7.5 13t-8 14t-7 13t-7.5 14t-6 13t-6 14t-4.5 14t-3.5 15.5t-2 14.5t-1 16q0 82 67 96z"/>
<glyph glyph-name="percent" horiz-adv-x="181" unicode="%" d="M76 294q7 0 12.5 7.5t5.5 18.5t-5.5 20t-12.5 9q-8 0 -13.5 -8.5t-5.5 -20.5q0 -11 5.5 -18.5t13.5 -7.5zM131 115q8 0 14 7.5t6 18.5t-6 19.5t-14 8.5q-7 0 -12 -8.5t-5 -19.5q0 -10 5 -18t12 -8zM1 2l193 474h17l-194 -474h-16zM164 142q0 -20 -9.5 -34t-23.5 -14 q-12 0 -21.5 14t-9.5 34q0 19 9.5 33t21.5 14q14 0 23.5 -14t9.5 -33zM108 320q0 -19 -9.5 -32.5t-22.5 -13.5q-14 0 -23 13.5t-9 32.5q0 21 9 35t23 14q13 0 22.5 -14.5t9.5 -34.5z"/>
<glyph glyph-name="ampersand" d="M64 280q49 78 49 132q0 44 -29 46h-1q-32 0 -32 -68q0 -50 13 -110zM103 58l-46 186q-17 -21 -28 -55.5t-11 -67.5q0 -73 48 -73q17 0 37 10zM152 0h-60v19h23l-7 21q-24 -10 -43 -10q-32 0 -49 25.5t-17 65.5q0 83 50 143q-17 74 -17 126q0 86 51 86q22 0 34.5 -16.5 t12.5 -45.5q0 -66 -59 -152l46 -194q21 14 21 70q0 12 -2 46h-19v16h50v-16h-14q0 -2 1.5 -19t1.5 -29q0 -67 -35 -89l12 -28h19v-19z" unicode="&amp;"/>
<glyph glyph-name="quotesingle" horiz-adv-x="86" unicode="&apos;" d="M36 475h13v-63h-13v63z"/>
<glyph glyph-name="parenleft" horiz-adv-x="101" unicode="(" d="M66 -9q-39 111 -39 241q0 125 39 244q9 -26 9 -41q0 -2 -3 -17q-23 -89 -23 -186q0 -100 23 -183q0 -1 1.5 -7t1.5 -10q0 -14 -9 -41z"/>
<glyph glyph-name="parenright" horiz-adv-x="111" unicode=")" d="M40 -9q-9 27 -9 41q0 4 1.5 10t1.5 7q23 83 23 183q0 97 -23 186q-3 15 -3 17q0 15 9 41q39 -119 39 -244q0 -130 -39 -241z"/>
<glyph glyph-name="asterisk" horiz-adv-x="123" unicode="*" d="M52 441l-2 35h17l-1 -35l28 12l6 -16l-31 -9l27 -27l-13 -10l-25 29l-23 -28l-12 10l25 26l-29 9l5 16z"/>
<glyph glyph-name="plus" horiz-adv-x="133" unicode="+" d="M58 308h13v-63h56v-13h-56v-63h-13v63h-55v13h55v63z"/>
<glyph glyph-name="comma" horiz-adv-x="83" unicode="," d="M33 0l26 79h22l-28 -79h-20z"/>
<glyph glyph-name="hyphen" horiz-adv-x="141" unicode="-" d="M115 225h-80v19h80v-19z"/>
<glyph glyph-name="period" horiz-adv-x="74" unicode="." d="M34 62q-15 0 -15 15q0 16 15 16q6 0 11 -5t5 -11q0 -15 -16 -15z"/>
<glyph glyph-name="slash" horiz-adv-x="154" unicode="/" d="M143 432h14l-121 -405h-13z"/>
<glyph glyph-name="zero" horiz-adv-x="155" unicode="0" d="M40 363v-270q0 -21 10 -32.5t24 -11.5q15 0 27 12t12 32v270q0 22 -10 33.5t-25 11.5t-26.5 -12t-11.5 -33zM19 93v270q0 29 18.5 45.5t42.5 16.5q23 0 38.5 -14.5t15.5 -42.5v-281q0 -24 -19.5 -41t-43.5 -17q-22 0 -37 16t-15 48z"/>
<glyph glyph-name="one" horiz-adv-x="102" unicode="1" d="M79 27h-57v18h18v361h-28v18h49v-379h18v-18z"/>
<glyph glyph-name="two" horiz-adv-x="124" unicode="2" d="M34 337h-20v33q0 56 51 56q21 0 34 -12.5t13 -31.5q0 -7 -12 -58q-29 -124 -63 -277h57v29h20v-47h-101v15l78 339q0 25 -28 25q-29 0 -29 -38v-33z"/>
<glyph glyph-name="three" horiz-adv-x="123" unicode="3" d="M5 78h19q-1 -12 5 -22.5t22 -10.5h5q14 1 23.5 28t9.5 60q0 35 -12.5 58.5t-37.5 23.5q-7 0 -11 -1v19h2q55 0 55 110q0 11 -0.5 24.5t-0.5 14.5q0 26 -26 28h-2q-29 0 -29 -53v-8v-1h-19v26q0 25 13 39.5t37 14.5q21 0 34 -12.5t13 -33.5v-21q0 -127 -37 -135 q41 -18 41 -93q0 -41 -15 -73t-39 -34h-3q-19 0 -33 13.5t-14 33.5v5z"/>
<glyph glyph-name="four" horiz-adv-x="120" unicode="4" d="M20 275h44v81q0 8 2 24zM104 27h-63v18h23v212h-64v18l66 149h18v-149h20v-18h-20v-212h20v-18z"/>
<glyph glyph-name="five" horiz-adv-x="121" unicode="5" d="M4 79h20v-2q0 -31 28 -31q32 0 32 36q0 2 1 25.5t1 41.5q0 124 -45 124h-25v149h75v-18h-56v-112q1 0 5 -0.5t7 -0.5q59 -6 59 -150q0 -15 -0.5 -36t-0.5 -24q0 -24 -14.5 -39t-37.5 -15q-22 0 -35.5 14t-13.5 37v1z"/>
<glyph glyph-name="six" horiz-adv-x="123" unicode="6" d="M58 45q12 0 20.5 9.5t8.5 24.5l1 25v43q0 55 -5 83q-3 17 -22 17q-23 0 -27 -22q-6 -31 -6 -97q0 -14 0.5 -31t0.5 -18q0 -16 8 -25t21 -9zM106 350h-19v8q0 22 -8.5 36.5t-20.5 14.5q-16 0 -22.5 -9.5t-6.5 -33.5v-113q13 12 32 12q15 0 26.5 -8t14.5 -22q7 -28 7 -97 q0 -16 -0.5 -36.5t-0.5 -22.5q0 -23 -14 -37.5t-36 -14.5q-23 0 -36.5 15t-13.5 41v291q0 25 13 39t37 14q48 0 48 -70v-7z"/>
<glyph glyph-name="seven" horiz-adv-x="126" unicode="7" d="M53 27h-22l63 381h-59v-39h-20v57h101v-15z"/>
<glyph glyph-name="eight" horiz-adv-x="130" unicode="8" d="M61 235q11 0 18.5 30t7.5 68q0 76 -26 76t-26 -76q0 -38 7.5 -68t18.5 -30zM61 45q18 0 27 23t9 56q0 36 -10 64.5t-26 28.5t-25.5 -28t-9.5 -64q0 -33 9 -56.5t26 -23.5zM39 227q-25 22 -25 102q0 42 11.5 70t35.5 28t35.5 -28t11.5 -69q0 -33 -7.5 -63t-18.5 -40 q34 -17 34 -97q0 -42 -14 -72.5t-41 -31.5h-1q-27 0 -41 29t-14 71q0 35 9.5 64t24.5 37z"/>
<glyph glyph-name="nine" horiz-adv-x="118" unicode="9" d="M51 407q-15 -3 -24 -32.5t-9 -64.5q0 -59 20 -59l2 1h2q13 4 22 36.5t9 66.5q0 52 -20 52h-2zM1 82h20v-5q0 -33 26 -33h4q29 4 29 74l-2 168q-10 -49 -40 -49h-2q-19 1 -29 22.5t-10 53.5q0 42 15 76.5t39 34.5h1q25 -1 35.5 -27t10.5 -93l2 -185q0 -90 -49 -92h-2 q-21 0 -35 14t-13 40v1z"/>
<glyph glyph-name="colon" horiz-adv-x="63" unicode=":" d="M32 246q-15 0 -15 15q0 16 15 16q6 0 11 -5t5 -11q0 -15 -16 -15zM32 164q-15 0 -15 15q0 16 15 16q6 0 11 -5t5 -11q0 -15 -16 -15z"/>
<glyph glyph-name="semicolon" horiz-adv-x="73" unicode=";" d="M37 250q-15 0 -15 15q0 16 15 16q7 0 11.5 -5t4.5 -11q0 -15 -16 -15zM11 146l14 50h22l-16 -50h-20z"/>
<glyph glyph-name="less" horiz-adv-x="176" unicode="&lt;" d="M134 297l-2 -17l-113 -76l115 -73v-18l-132 83v17z"/>
<glyph glyph-name="equal" horiz-adv-x="146" unicode="=" d="M115 248h-80v19h80v-19zM115 198h-80v19h80v-19z"/>
<glyph glyph-name="greater" horiz-adv-x="152" unicode="&gt;" d="M4 280l-2 17l132 -84v-17l-132 -83v18l115 73z"/>
<glyph glyph-name="question" horiz-adv-x="161" unicode="?" d="M78 5q-15 0 -15 15q0 16 15 16q6 0 11 -5t5 -11q0 -15 -16 -15zM48 342h-44v19h9l2 51q0 25 15.5 41t36.5 16q19 0 34 -14.5t20 -43.5q7 -35 7 -85q0 -60 -11 -109.5t-28 -57.5v-110h-20v128q1 0 2 -0.5t2 -0.5q18 0 27 44t9 104q0 28 -4 70q-3 28 -14 41.5t-25 13.5 q-12 0 -21.5 -8.5t-10.5 -21.5l-2 -58h16v-19z"/>
<glyph glyph-name="at" horiz-adv-x="240" unicode="@" d="M138 223l7 124q-12 15 -22 15q-21 0 -30.5 -54t-9.5 -95q0 -24 18 -24q10 0 20.5 9t16.5 25zM174 154h-61v14h80v-12q-24 -74 -87 -74q-16 0 -27 4q-34 11 -52.5 54.5t-18.5 99.5q0 76 32 134t88 58q43 0 67 -45.5t24 -104.5q0 -45 -14.5 -77t-39.5 -32q-23 0 -29 24 q-12 -21 -34 -21q-14 0 -24.5 10t-10.5 27q0 49 11.5 107t39.5 58q13 0 30 -17l16 -1l-13 -153q-1 -6 3 -13t12 -8q15 1 25 31t10 70q0 52 -18 89.5t-54 37.5q-47 0 -74 -54t-27 -123q0 -48 14 -85t41 -49q14 -6 26 -6q48 0 65 57z"/>
<glyph glyph-name="A" horiz-adv-x="180" unicode="A" d="M85 446l-23 -182h47q-4 39 -10.5 83.5t-10 70t-3.5 28.5zM150 264v-20h-18l23 -225h18v-19h-64v19h21q-6 68 -10.5 131t-7.5 94h-52l-20 -225h22v-19h-61v19h16l23 225h-15v20h18l25 191h-15v21h68v-21h-15l24 -191h20z"/>
<glyph glyph-name="B" horiz-adv-x="164" unicode="B" d="M45 457v-192h25q14 5 25 40.5t11 73.5q0 58 -25 73q-8 5 -36 5zM68 245h-23v-226h13q23 0 35 5q44 18 44 91q0 48 -20 89t-48 41h-1zM0 0v19h21v226h-20v20h20v192h-21v19h33q36 0 46 -2q49 -12 49 -93q0 -39 -11.5 -77t-24.5 -47q29 -9 47 -51t18 -91q0 -19 -3 -37 q-17 -78 -90 -78h-64z"/>
<glyph glyph-name="C" horiz-adv-x="155" unicode="C" d="M145 392h-20v36q-10 26 -31 26q-19 0 -35 -25q-36 -61 -36 -204q0 -85 17 -145.5t49 -60.5q24 4 30 43h-18v20h39q-2 -80 -49 -82h-2q-42 0 -64.5 66t-22.5 159q0 158 48 225q18 25 46 25q17 0 29 -12v13h20v-84z"/>
<glyph glyph-name="D" d="M63 457v-438q36 0 49 22q33 61 33 206q0 74 -12 132t-34 73q-7 5 -36 5zM52 0h-52v56h20v-37h19v438h-18v-37h-20v56h48q45 0 55 -5q31 -16 47 -80.5t16 -147.5q0 -150 -41 -215q-9 -15 -24 -21.5t-50 -6.5z" unicode="D"/>
<glyph glyph-name="E" horiz-adv-x="150" unicode="E" d="M113 226h-20v18h-49v-225h75v34h21v-53h-140v19h20v225h-19v20h19v195h-20v19h140v-49h-21v30h-75v-195h49v18h20v-56z"/>
<glyph glyph-name="F" horiz-adv-x="148" unicode="F" d="M104 221h-20v22h-41v-224h25v-19h-69v19h20v439h-20v19h140v-49h-21v30h-75v-196h41v15h20v-56z"/>
<glyph glyph-name="G" horiz-adv-x="174" unicode="G" d="M170 392h-20l-1 48q-9 4 -15 6q-12 3 -21 3q-17 0 -30 -8.5t-22 -26.5t-14.5 -31.5t-10 -40t-5.5 -34t-3 -30.5q-4 -36 -4 -83q0 -122 31 -139q10 -5 18 -5q28 0 42.5 49t14.5 109v6h-31v28h56v-1v-221h15v-20h-52v20h17l1 77q-6 -31 -24.5 -50t-40.5 -19q-15 0 -31 11 q-38 30 -38 169q0 37 3 73q3 38 8 66t16 58.5t31.5 47t49.5 16.5q14 0 29 -4q8 -2 11 -3v13h20v-84z"/>
<glyph glyph-name="H" d="M44 263h81v194h-20v19h64v-19h-20v-438h20v-19h-64v19h20v225h-81v-225h20v-19h-64v19h20v438h-20v19h64v-19h-20v-194z" unicode="H"/>
<glyph glyph-name="I" horiz-adv-x="69" unicode="I" d="M44 457v-435h20v-22h-64v22h20v435h-20v19h64v-19h-20z"/>
<glyph glyph-name="J" horiz-adv-x="118" unicode="J" d="M0 81h22q-1 -7 -1 -20q0 -42 21 -42q9 0 16.5 9.5t7.5 23.5v405h-33v19h82v-19h-25v-412q0 -19 -14.5 -32t-33.5 -13q-18 0 -30.5 15t-12.5 46q0 13 1 20z"/>
<glyph glyph-name="K" horiz-adv-x="144" unicode="K" d="M15 17v442h-15v17h40v-242l57 225h-15v17h52v-17h-13l-57 -227l55 -215h14v-17h-53v17h13l-53 213v-213h15v-17h-55v17h15z"/>
<glyph glyph-name="L" horiz-adv-x="133" unicode="L" d="M125 0h-125v19h20v438h-20v19h67v-19h-23v-438h60v80h21v-99z"/>
<glyph glyph-name="M" horiz-adv-x="213" unicode="M" d="M44 452v-433h20v-19h-64v19h20v438h-20v19h59l45 -187l46 187h55v-19h-20v-438h20v-19h-62v19h20v433l-52 -208h-16z"/>
<glyph glyph-name="N" horiz-adv-x="166" unicode="N" d="M162 20v-20h-67v19h16l-69 394v-394h20v-19h-62v19h20v438h-20v19h54l68 -411l-1 392h-20v19h62v-19h-20v-437h19z"/>
<glyph glyph-name="O" horiz-adv-x="168" unicode="O" d="M23 241q0 -87 16.5 -152.5t42.5 -65.5q27 0 43 65t16 153q0 82 -17.5 149.5t-41.5 67.5q-25 -1 -42 -67.5t-17 -149.5zM1 241q0 102 22 168.5t58 67.5h2q22 0 38.5 -25.5t24.5 -65.5t11.5 -76t3.5 -69q0 -105 -22 -173t-58 -68t-58 68.5t-22 172.5z"/>
<glyph glyph-name="P" horiz-adv-x="152" unicode="P" d="M44 457v-293q77 3 77 165q0 86 -29 116q-12 12 -48 12zM44 145v-126h22v-19h-66v19h20v437h-20v20h34q44 0 56 -5q51 -24 51 -140q0 -178 -97 -186z"/>
<glyph glyph-name="Q" d="M73 42v22h19v-20q47 18 47 161q0 7 -0.5 20t-0.5 19q-2 84 -17.5 146t-38.5 62h-2q-24 -4 -39.5 -65.5t-15.5 -142.5q0 -186 48 -202zM113 0h-60v19h20v7q-24 3 -39.5 23t-22 55.5t-8.5 66t-2 73.5q0 98 23.5 165t54.5 67h3q28 0 47 -45.5t25.5 -95t6.5 -91.5 q0 -202 -66 -217q-1 0 -3 -1v-7h21v-19z" unicode="Q"/>
<glyph glyph-name="R" horiz-adv-x="157" unicode="R" d="M44 457v-193h14q22 0 30 6q21 18 23 93q0 5 0.5 17.5t0.5 18.5q0 48 -27 56q-10 2 -41 2zM151 19v-19h-64v19h20v190q0 18 -8.5 26.5t-32.5 8.5h-22v-225h20v-19h-64v19h20v225h-20v20h20v193h-20v19h31q60 0 77 -10q27 -17 27 -86v-16q0 -91 -33 -109q29 -11 29 -43 v-193h20z"/>
<glyph glyph-name="S" horiz-adv-x="131" unicode="S" d="M19 33v-33h-19v77h19q0 -20 14 -39t32 -19q4 0 14 4q17 9 17 66q0 9 -2 23q-7 43 -50.5 118.5t-43.5 122.5q0 48 21 81t67 33q2 0 6 -0.5t7 -0.5v10h16v-64h-16q-3 19 -7 25.5t-13 8.5h-4q-20 0 -37 -24t-18 -65q0 -44 44 -122.5t50 -119.5q2 -18 2 -28q0 -71 -34 -85 q-6 -3 -14 -3q-15 0 -30 9t-21 25z"/>
<glyph glyph-name="T" horiz-adv-x="145" unicode="T" d="M79 457v-438h20v-19h-64v19h20v438h-35v-21h-20v40h134v-40h-21v21h-34z"/>
<glyph glyph-name="U" d="M44 457v-390q0 -25 8.5 -35t28.5 -10q21 0 30 10t9 35v390h-20v19h64v-19h-20v-390q0 -66 -63 -66q-61 0 -61 66v390h-20v19h64v-19h-20z" unicode="U"/>
<glyph glyph-name="V" horiz-adv-x="187" unicode="V" d="M111 0h-63v19h20l-50 438h-17v19h59v-19h-18l40 -385l54 385h-19v19h60v-19h-18l-65 -438h17v-19z"/>
<glyph glyph-name="W" horiz-adv-x="250" unicode="W" d="M200 0h-60v19h15l-36 333l-36 -333h19v-19h-60v19h15l-41 438h-15v19h57v-19h-19l31 -384l34 325h-10v19h51v-19h-10l31 -319l36 378h-20v19h56v-19h-16l-41 -438h19v-19z"/>
<glyph glyph-name="X" horiz-adv-x="165" unicode="X" d="M116 19l-39 218l-37 -218h24v-19h-64v19h19l43 239l-43 199h-19v19h65v-19h-26l39 -167l35 167h-23v19h66v-19h-19l-48 -193l48 -245h19v-19h-67v19h27z"/>
<glyph glyph-name="Y" horiz-adv-x="164" unicode="Y" d="M90 262v-243h19v-19h-63v19h20v243l-48 194h-18v19h63v-19h-18l33 -172l35 172h-17v19h61v-19h-20z"/>
<glyph glyph-name="Z" horiz-adv-x="133" unicode="Z" d="M31 22h86v36h20v-55h-128v19l85 434h-70v-30h-20v49h112v-19z"/>
<glyph glyph-name="bracketleft" horiz-adv-x="77" unicode="[" d="M12 -5v479h49v-16h-29v-447h29v-16h-49z"/>
<glyph glyph-name="backslash" horiz-adv-x="156" unicode="\" d="M5 432h14l120 -405h-13z"/>
<glyph glyph-name="bracketright" horiz-adv-x="106" unicode="]" d="M61 474v-479h-49v16h29v447h-29v16h49z"/>
<glyph glyph-name="asciicircum" horiz-adv-x="214" unicode="^" d="M90 476h18l56 -92h-19l-46 78l-54 -78h-18z"/>
<glyph glyph-name="underscore" horiz-adv-x="164" unicode="_" d="M143 -26h-131v16h131v-16z"/>
<glyph glyph-name="grave" horiz-adv-x="88" unicode="`" d="M34 467l39 -73h-13l-46 73h20z"/>
<glyph glyph-name="a" horiz-adv-x="177" unicode="a" d="M84 402l-16 -128h33q-17 126 -17 128zM139 274l4 -20h-18l29 -200h18v-19h-64v19h21q-4 35 -25 199h-38l-27 -199h22v-19h-61v19h16l29 199h-17l5 21h15l19 137h-10v21h56v-21h-8l18 -137h16z"/>
<glyph glyph-name="b" horiz-adv-x="162" unicode="b" d="M47 413v-139h25q9 8 19 34t10 50q0 55 -54 55zM65 254h-18v-197q41 7 61.5 36t20.5 66q0 36 -18 64t-46 31zM0 35v19h23v200h-23v20h23v139h-23v19h65q59 -5 59 -74q0 -27 -9 -54t-21 -38q25 -9 41 -39t16 -66q0 -52 -35 -89t-106 -37h-10z"/>
<glyph glyph-name="c" horiz-adv-x="154" unicode="c" d="M145 366h-20v18q-11 26 -31 26q-22 0 -37 -26q-35 -61 -35 -158q0 -56 13.5 -101.5t37.5 -64.5q9 -6 17 -6q25 0 32 35h-14v20h39q-3 -38 -18.5 -55.5t-34.5 -18.5h-4q-42 0 -65 55.5t-23 133.5q0 125 46 183q17 23 48 23q18 0 29 -11v13h20v-66z"/>
<glyph glyph-name="d" horiz-adv-x="174" unicode="d" d="M63 412v-357q38 7 59 60.5t21 124.5t-21 121t-59 51zM60 36h-60v56h20v-37h19v357h-18v-37h-20v56h57h1q51 0 78.5 -56.5t27.5 -135.5q0 -80 -28 -140.5t-77 -62.5z"/>
<glyph glyph-name="e" horiz-adv-x="152" unicode="e" d="M125 238h-20v18h-62v-202h75v34h21v-53h-139v19h19v202h-19v20h19v137h-19v19h139v-49h-21v30h-75v-137h62v18h20v-56z"/>
<glyph glyph-name="f" horiz-adv-x="145" unicode="f" d="M105 234h-20v22h-41v-202h25v-19h-69v19h20v359h-20v19h140v-49h-21v30h-75v-138h41v15h20v-56z"/>
<glyph glyph-name="g" horiz-adv-x="147" unicode="g" d="M129 353h-20v6q0 50 -16 53h-7q-10 0 -18.5 -3.5t-14.5 -11t-10.5 -15.5t-7.5 -22t-5 -24t-3 -28t-1.5 -28.5t-1 -30.5t-0.5 -29v-25q0 -70 9 -98q6 -19 27 -19q30 0 35 27h-25v19h74v-19h-15v-49h15v-20h-52v20h17l1 31q-16 -28 -52 -28q-30 0 -42 26q-15 34 -15 115v21 q2 115 13 151q18 60 69 60q2 0 6 -0.5t6 -0.5q35 -9 34 -78z"/>
<glyph glyph-name="h" horiz-adv-x="174" unicode="h" d="M44 275h81v138h-20v19h64v-19h-20v-359h20v-19h-64v19h20v202h-81v-202h20v-19h-64v19h20v359h-20v19h64v-19h-20v-138z"/>
<glyph glyph-name="i" horiz-adv-x="74" unicode="i" d="M44 413v-356h20v-22h-64v22h20v356h-20v19h64v-19h-20z"/>
<glyph glyph-name="j" horiz-adv-x="111" unicode="j" d="M0 116h22q-1 -7 -1 -19q0 -39 16 -41h1q24 0 24 71v286h-59v19h101v-19h-18v-285q0 -89 -44 -93h-4q-38 0 -38 68v13z"/>
<glyph glyph-name="k" horiz-adv-x="136" unicode="k" d="M15 52v363h-15v17h40v-196l53 179h-15v17h52v-17h-13l-53 -181l55 -182h14v-17h-53v17h13l-53 180v-180h15v-17h-55v17h15z"/>
<glyph glyph-name="l" horiz-adv-x="137" unicode="l" d="M125 35h-125v19h20v359h-20v19h67v-19h-23v-359h60v30h21v-49z"/>
<glyph glyph-name="m" horiz-adv-x="217" unicode="m" d="M44 408v-354h20v-19h-64v19h20v359h-20v19h59l45 -127l46 127h55v-19h-20v-359h20v-19h-62v19h20v354l-53 -139h-14z"/>
<glyph glyph-name="n" horiz-adv-x="172" unicode="n" d="M162 55v-20h-67v19h16l-69 312v-311h20v-19h-62v19h20v358h-20v19h54l68 -339l-1 320h-20v19h62v-19h-20v-358h19z"/>
<glyph glyph-name="o" horiz-adv-x="169" unicode="o" d="M22 241q0 -84 16 -135t43 -51t43 51t16 135q0 80 -14.5 126t-42.5 46h-2q-59 -3 -59 -172zM0 241q0 188 80 191h2q30 0 48.5 -34t24 -73.5t5.5 -83.5q0 -101 -21 -153.5t-59 -52.5q-37 0 -58.5 53t-21.5 153z"/>
<glyph glyph-name="p" horiz-adv-x="153" unicode="p" d="M62 413h-18v-217q33 11 53 50.5t20 83.5q0 36 -14 59.5t-41 23.5zM44 177v-123h22v-19h-66v19h20v358h-20v20h68q34 0 51.5 -28.5t17.5 -70.5q0 -53 -25 -99.5t-68 -56.5z"/>
<glyph glyph-name="q" horiz-adv-x="174" unicode="q" d="M87 135l15 -50q35 12 35 131v32q-5 158 -55 158h-3q-55 -10 -55 -158q0 -84 11.5 -125.5t41.5 -41.5q1 0 3.5 0.5t3.5 0.5l-16 47zM112 67l7 -14h19v-19h-33l-11 25h-10q-28 0 -46 14.5t-26 45t-10 58t-2 71.5q0 93 22 137.5t56 44.5h5q21 0 37 -18.5t24 -47.5t12 -58.5 t4 -57.5q0 -83 -8.5 -124t-39.5 -57z"/>
<glyph glyph-name="r" horiz-adv-x="162" unicode="r" d="M70 412h-26v-149h26h3q38 0 38 75q0 12 -1 27.5t-1 17.5q-1 16 -8.5 22.5t-30.5 6.5zM151 54v-19h-64v19h20v155q0 30 -20 34h-43v-189h20v-19h-64v19h20v189h-20v20h20v149h-20v19h77q30 0 43 -10.5t13 -34.5q0 -2 1 -19t1 -30q0 -74 -28 -85q13 -4 18.5 -12t5.5 -28 v-158h20z"/>
<glyph glyph-name="s" horiz-adv-x="134" unicode="s" d="M19 63v-28h-19v59h19q5 -15 19 -26t28 -11h3q38 4 38 41q0 50 -55 133q-52 92 -52 137q0 50 51 62q4 1 13 1q22 0 41 -8v9h16v-60h-17v17l-1 15q-13 7 -31 7q-11 0 -20 -3q-29 -10 -29 -41q0 -9 2.5 -20.5t6 -21t10 -23t10 -20.5t11 -21t9.5 -17q2 -4 12 -22t16.5 -30 t14.5 -30t12 -34.5t4 -30.5q0 -43 -44 -58q-7 -3 -16 -3q-37 0 -52 27z"/>
<glyph glyph-name="t" horiz-adv-x="144" unicode="t" d="M79 413v-359h20v-19h-64v19h20v359h-35v-21h-20v40h134v-40h-21v21h-34z"/>
<glyph glyph-name="u" horiz-adv-x="171" unicode="u" d="M44 413v-312q0 -25 8.5 -35t28.5 -10q21 0 30 10t9 35v312h-20v19h64v-19h-20v-312q0 -66 -63 -66q-61 0 -61 66v312h-20v19h64v-19h-20z"/>
<glyph glyph-name="v" horiz-adv-x="190" unicode="v" d="M88 35h-19l-52 378h-17v19h59v-19h-18l40 -305l54 305h-19v19h60v-19h-18z"/>
<glyph glyph-name="w" horiz-adv-x="245" unicode="w" d="M118 308l-38 -273h-22l-43 378h-15v19h57v-19h-19l31 -299l34 240h-10v19h51v-19h-10l31 -234l36 293h-20v19h56v-19h-16l-42 -378h-23z"/>
<glyph glyph-name="x" horiz-adv-x="170" unicode="x" d="M116 54l-39 185l-37 -185h24v-19h-64v19h19l43 206l-43 153h-19v19h65v-19h-26l39 -121l35 121h-23v19h66v-19h-19l-48 -147l48 -212h19v-19h-67v19h27z"/>
<glyph glyph-name="y" horiz-adv-x="166" unicode="y" d="M90 218v-164h19v-19h-63v19h20v164l-48 194h-18v19h63v-19h-18l33 -144l35 144h-17v19h61v-19h-20z"/>
<glyph glyph-name="z" horiz-adv-x="142" unicode="z" d="M22 54h85v36h20v-55h-127v19l95 359h-75v-30h-20v49h117v-19z"/>
<glyph glyph-name="braceleft" horiz-adv-x="105" unicode="{" d="M47 285v147q0 28 12 36q11 6 30 6h4v-15h-4q-15 0 -20 -5.5t-5 -22.5v-146q0 -33 -23 -38q23 -5 23 -38v-170q0 -17 5.5 -22.5t18.5 -5.5l5 1v-15h-4q-24 0 -30 5q-12 8 -12 37v169q0 18 -6 25t-21 7h-6v15l3 -1h3q15 0 21 7t6 24z"/>
<glyph glyph-name="bar" horiz-adv-x="83" unicode="|" d="M33 476h15v-473h-15v473z"/>
<glyph glyph-name="braceright" horiz-adv-x="117" unicode="}" d="M60 432v-147q0 -17 6 -24t21 -7q1 0 3 0.5t3 0.5v-15h-6q-15 0 -21 -7t-6 -25v-169q0 -29 -12 -37q-6 -5 -30 -5h-4v15q4 -1 5 -1q13 0 18.5 5.5t5.5 22.5v170q0 33 23 38q-23 5 -23 38v146q0 17 -5 22.5t-20 5.5h-4v15h4q20 0 30 -6q12 -8 12 -36z"/>
<glyph glyph-name="asciitilde" horiz-adv-x="170" unicode="~" d="M155 309v-15q-18 -15 -35 -15q-9 0 -26.5 6t-27.5 6q-20 0 -40 -15v15q20 12 39 12q11 0 29 -6.5t26 -6.5q16 0 35 19z"/>
<glyph glyph-name="cent" horiz-adv-x="154" unicode="¢" d="M57 384q-36 -63 -36 -159q0 -119 48 -162v336q-7 -6 -12 -15zM69 476h15v-48q10 2 14 2q18 0 27 -11v13h20v-66h-20v18q-10 26 -32 26q-3 0 -9 -2v-354q1 0 3 -0.5t3 -0.5q11 0 20 10t12 26h-14v20h39q-3 -38 -18.5 -55.5t-34.5 -18.5h-10v-32h-15v36q-32 14 -49.5 66 t-17.5 119q0 125 46 183q6 9 21 16v53z"/>
<glyph glyph-name="yen" horiz-adv-x="164" unicode="¥" d="M66 198h-27v19h27v31h-27v19h26l-47 189h-18v19h63v-19h-18l33 -172l35 172h-17v19h61v-19h-20l-46 -189h28v-19h-29v-31h29v-19h-29v-179h19v-19h-63v19h20v179z"/>
<glyph glyph-name="dieresis" horiz-adv-x="128" unicode="¨" d="M86 446q-15 0 -15 15q0 16 15 16q6 0 11 -5t5 -11q0 -15 -16 -15zM34 446q-15 0 -15 15q0 16 15 16q6 0 11 -5t5 -11q0 -15 -16 -15z"/>
<glyph glyph-name="guillemotleft" horiz-adv-x="213" unicode="«" d="M134 297l-2 -17l-113 -76l115 -73v-18l-132 83v17zM191 297l-2 -17l-113 -76l115 -73v-18l-132 83v17z"/>
<glyph glyph-name="logicalnot" horiz-adv-x="277" unicode="¬" d="M241 244h-229v16h245v-131h-16v115z"/>
<glyph glyph-name="plusminus" horiz-adv-x="164" unicode="±" d="M14 115h124v-13h-124v13zM69 305h13v-79h56v-13h-56v-86h-13v86h-55v13h55v79z"/>
<glyph glyph-name="acute" horiz-adv-x="81" unicode="´" d="M66 489l6 -12l-63 -15l-5 12z"/>
<glyph glyph-name="mu" horiz-adv-x="157" unicode="µ" d="M50 477h25l-16 -156v-10q0 -23 6 -33q8 -13 20 1q13 14 44 198h20q-26 -133 -26 -181q0 -32 10 -32h2v-18h-3q-22 0 -34 21q-8 -15 -25 -15q-15 0 -19 10l-20 -261h-23z"/>
<glyph glyph-name="paragraph" horiz-adv-x="195" unicode="¶" d="M180 427v-22h-34v-405h-25v405h-49v-405h-26v225q-45 3 -45 96v6q1 100 50 100h129z"/>
<glyph glyph-name="cedilla" horiz-adv-x="94" unicode="¸" d="M56 -148l-55 1v19l53 -1v76h-17v51h18v-35h1q14 0 18 -53q1 -7 1 -20q0 -35 -19 -38z"/>
<glyph glyph-name="guillemotright" horiz-adv-x="221" unicode="»" d="M61 280l-2 17l132 -84v-17l-132 -83v18l115 73zM4 280l-2 17l132 -84v-17l-132 -83v18l115 73z"/>
<glyph glyph-name="Agrave" horiz-adv-x="180" unicode="À" d="M85 446l-23 -182h47q-4 39 -10.5 83.5t-10 70t-3.5 28.5zM150 264v-20h-18l23 -225h18v-19h-64v19h21q-6 68 -10.5 131t-7.5 94h-52l-20 -225h22v-19h-61v19h16l23 225h-15v20h18l25 191h-15v21h68v-21h-15l24 -191h20zM74 565l39 -73h-13l-46 73h20z"/>
<glyph glyph-name="Aacute" horiz-adv-x="180" unicode="Á" d="M85 446l-23 -182h47q-4 39 -10.5 83.5t-10 70t-3.5 28.5zM150 264v-20h-18l23 -225h18v-19h-64v19h21q-6 68 -10.5 131t-7.5 94h-52l-20 -225h22v-19h-61v19h16l23 225h-15v20h18l25 191h-15v21h68v-21h-15l24 -191h20zM121 526l6 -12l-63 -15l-5 12z"/>
<glyph glyph-name="Atilde" horiz-adv-x="180" unicode="Ã" d="M158 693v-19q-22 -15 -45 -15q-4 0 -23.5 12t-24.5 12q-17 0 -43 -18v19q22 16 44 16l12 -6q13 -7 24.5 -13t11.5 -5q17 0 44 17zM85 446l-23 -182h47q-4 39 -10.5 83.5t-10 70t-3.5 28.5zM150 264v-20h-18l23 -225h18v-19h-64v19h21q-6 68 -10.5 131t-7.5 94h-52 l-20 -225h22v-19h-61v19h16l23 225h-15v20h18l25 191h-15v21h68v-21h-15l24 -191h20z"/>
<glyph glyph-name="Adieresis" horiz-adv-x="180" unicode="Ä" d="M85 446l-23 -182h47q-4 39 -10.5 83.5t-10 70t-3.5 28.5zM150 264v-20h-18l23 -225h18v-19h-64v19h21q-6 68 -10.5 131t-7.5 94h-52l-20 -225h22v-19h-61v19h16l23 225h-15v20h18l25 191h-15v21h68v-21h-15l24 -191h20zM113 502q-15 0 -15 15q0 16 15 16q6 0 11 -5t5 -11 q0 -15 -16 -15zM61 502q-15 0 -15 15q0 16 15 16q6 0 11 -5t5 -11q0 -15 -16 -15z"/>
<glyph glyph-name="Ccedilla" horiz-adv-x="159" unicode="Ç" d="M145 392h-20v36q-10 26 -31 26q-19 0 -35 -25q-36 -61 -36 -204q0 -85 17 -145.5t49 -60.5q24 4 30 43h-18v20h39q-2 -77 -46 -82v-28h1q14 0 18 -53q1 -7 1 -20q0 -35 -19 -38l-55 1v19l53 -1v76h-17v46q-36 11 -54.5 74t-18.5 149q0 160 47 225q18 25 46 25 q17 0 29 -12v13h20v-84z"/>
<glyph glyph-name="Egrave" horiz-adv-x="150" unicode="È" d="M113 226h-20v18h-49v-223h75v34h21v-53h-140v19h20v223h-19v20h19v195h-20v19h140v-49h-21v30h-75v-195h49v18h20v-56zM65 560l39 -73h-13l-46 73h20z"/>
<glyph glyph-name="Eacute" horiz-adv-x="150" unicode="É" d="M103 529l6 -12l-63 -15l-5 12zM113 226h-20v18h-49v-223h75v34h21v-53h-140v19h20v223h-19v20h19v195h-20v19h140v-49h-21v30h-75v-195h49v18h20v-56z"/>
<glyph glyph-name="Edieresis" horiz-adv-x="150" unicode="Ë" d="M100 491q-15 0 -15 15q0 16 15 16q6 0 11 -5t5 -11q0 -15 -16 -15zM48 491q-15 0 -15 15q0 16 15 16q6 0 11 -5t5 -11q0 -15 -16 -15zM113 226h-20v18h-49v-223h75v34h21v-53h-140v19h20v223h-19v20h19v195h-20v19h140v-49h-21v30h-75v-195h49v18h20v-56z"/>
<glyph glyph-name="Igrave" horiz-adv-x="69" unicode="Ì" d="M25 565l39 -73h-13l-46 73h20zM44 457v-435h20v-22h-64v22h20v435h-20v19h64v-19h-20z"/>
<glyph glyph-name="Iacute" horiz-adv-x="69" unicode="Í" d="M63 527l6 -12l-63 -15l-5 12zM44 457v-435h20v-22h-64v22h20v435h-20v19h64v-19h-20z"/>
<glyph glyph-name="Idieresis" horiz-adv-x="69" unicode="Ï" d="M60 495q-15 0 -15 15q0 16 15 16q6 0 11 -5t5 -11q0 -15 -16 -15zM8 495q-15 0 -15 15q0 16 15 16q6 0 11 -5t5 -11q0 -15 -16 -15zM44 457v-435h20v-22h-64v22h20v435h-20v19h64v-19h-20z"/>
<glyph glyph-name="Ograve" horiz-adv-x="168" unicode="Ò" d="M23 241q0 -87 16.5 -152.5t42.5 -65.5q27 0 43 65t16 153q0 82 -17.5 149.5t-41.5 67.5q-25 -1 -42 -67.5t-17 -149.5zM1 241q0 102 22 168.5t58 67.5h2q22 0 38.5 -25.5t24.5 -65.5t11.5 -76t3.5 -69q0 -105 -22 -173t-58 -68t-58 68.5t-22 172.5zM76 563l39 -73h-13 l-46 73h20z"/>
<glyph glyph-name="Oacute" horiz-adv-x="168" unicode="Ó" d="M23 241q0 -87 16.5 -152.5t42.5 -65.5q27 0 43 65t16 153q0 82 -17.5 149.5t-41.5 67.5q-25 -1 -42 -67.5t-17 -149.5zM1 241q0 102 22 168.5t58 67.5h2q22 0 38.5 -25.5t24.5 -65.5t11.5 -76t3.5 -69q0 -105 -22 -173t-58 -68t-58 68.5t-22 172.5zM112 521l6 -12 l-63 -15l-5 12z"/>
<glyph glyph-name="Otilde" horiz-adv-x="168" unicode="Õ" d="M23 241q0 -87 16.5 -152.5t42.5 -65.5q27 0 43 65t16 153q0 82 -17.5 149.5t-41.5 67.5q-25 -1 -42 -67.5t-17 -149.5zM1 241q0 102 22 168.5t58 67.5h2q22 0 38.5 -25.5t24.5 -65.5t11.5 -76t3.5 -69q0 -105 -22 -173t-58 -68t-58 68.5t-22 172.5zM152 531v-19 q-22 -15 -45 -15q-4 0 -23.5 12t-24.5 12q-18 0 -43 -18v19q22 16 44 16l12 -6q13 -7 24.5 -13t11.5 -5q17 0 44 17z"/>
<glyph glyph-name="Odieresis" horiz-adv-x="168" unicode="Ö" d="M109 494q-15 0 -15 15q0 16 15 16q6 0 11 -5t5 -11q0 -15 -16 -15zM57 494q-15 0 -15 15q0 16 15 16q6 0 11 -5t5 -11q0 -15 -16 -15zM23 241q0 -87 16.5 -152.5t42.5 -65.5q27 0 43 65t16 153q0 82 -17.5 149.5t-41.5 67.5q-25 -1 -42 -67.5t-17 -149.5zM1 241 q0 102 22 168.5t58 67.5h2q22 0 38.5 -25.5t24.5 -65.5t11.5 -76t3.5 -69q0 -105 -22 -173t-58 -68t-58 68.5t-22 172.5z"/>
<glyph glyph-name="multiply" horiz-adv-x="182" unicode="×" d="M29 365l15 5l43 -106l43 106l15 -5l-50 -126l50 -117l-14 -4l-44 97l-44 -97l-14 4l50 117z"/>
<glyph glyph-name="Oslash" horiz-adv-x="168" unicode="Ø" d="M82 23q27 0 43 65t16 153q0 63 -11 121l-87 -289q16 -50 39 -50zM23 241q0 -83 14 -145l87 293q-19 69 -42 69q-24 -1 -41.5 -68t-17.5 -149zM137 432h14l-9 -30q19 -71 19 -161q0 -105 -22 -173t-58 -68q-28 0 -47 41l-4 -14h-13l9 32q-25 67 -25 182q0 102 22 168.5 t58 67.5h2q31 0 52 -52z"/>
<glyph glyph-name="Ugrave" d="M44 457v-390q0 -25 8.5 -35t28.5 -10q21 0 30 10t9 35v390h-20v19h64v-19h-20v-390q0 -66 -63 -66q-61 0 -61 66v390h-20v19h64v-19h-20zM60 572l39 -73h-13l-46 73h20z" unicode="Ù"/>
<glyph glyph-name="Uacute" d="M44 457v-390q0 -25 8.5 -35t28.5 -10q21 0 30 10t9 35v390h-20v19h64v-19h-20v-390q0 -66 -63 -66q-61 0 -61 66v390h-20v19h64v-19h-20zM115 527l6 -12l-63 -15l-5 12z" unicode="Ú"/>
<glyph glyph-name="Udieresis" d="M44 457v-390q0 -25 8.5 -35t28.5 -10q21 0 30 10t9 35v390h-20v19h64v-19h-20v-390q0 -66 -63 -66q-61 0 -61 66v390h-20v19h64v-19h-20zM113 496q-15 0 -15 15q0 16 15 16q6 0 11 -5t5 -11q0 -15 -16 -15zM61 496q-15 0 -15 15q0 16 15 16q6 0 11 -5t5 -11 q0 -15 -16 -15z" unicode="Ü"/>
<glyph glyph-name="agrave" horiz-adv-x="177" unicode="à" d="M84 402l-16 -128h33q-17 126 -17 128zM139 274l4 -20h-18l29 -200h18v-19h-64v19h21q-4 35 -25 199h-38l-27 -199h22v-19h-61v19h16l29 199h-17l5 21h15l19 137h-10v21h56v-21h-8l18 -137h16zM63 529l39 -73h-13l-46 73h20z"/>
<glyph glyph-name="aacute" horiz-adv-x="177" unicode="á" d="M116 489l6 -12l-63 -15l-5 12zM84 402l-16 -128h33q-17 126 -17 128zM139 274l4 -20h-18l29 -200h18v-19h-64v19h21q-4 35 -25 199h-38l-27 -199h22v-19h-61v19h16l29 199h-17l5 21h15l19 137h-10v21h56v-21h-8l18 -137h16z"/>
<glyph glyph-name="atilde" horiz-adv-x="177" unicode="ã" d="M156 493v-19q-22 -15 -45 -15q-4 0 -23.5 12t-24.5 12q-18 0 -43 -18v19q22 16 44 16l12 -6q13 -7 24.5 -13t11.5 -5q17 0 44 17zM84 402l-16 -128h33q-17 126 -17 128zM139 274l4 -20h-18l29 -200h18v-19h-64v19h21q-4 35 -25 199h-38l-27 -199h22v-19h-61v19h16l29 199 h-17l5 21h15l19 137h-10v21h56v-21h-8l18 -137h16z"/>
<glyph glyph-name="adieresis" horiz-adv-x="177" unicode="ä" d="M114 446q-15 0 -15 15q0 16 15 16q6 0 11 -5t5 -11q0 -15 -16 -15zM62 446q-15 0 -15 15q0 16 15 16q6 0 11 -5t5 -11q0 -15 -16 -15zM84 402l-16 -128h33q-17 126 -17 128zM139 274l4 -20h-18l29 -200h18v-19h-64v19h21q-4 35 -25 199h-38l-27 -199h22v-19h-61v19h16 l29 199h-17l5 21h15l19 137h-10v21h56v-21h-8l18 -137h16z"/>
<glyph glyph-name="ccedilla" horiz-adv-x="154" unicode="ç" d="M145 366h-20v18q-11 26 -31 26q-22 0 -37 -26q-35 -61 -35 -158q0 -56 13.5 -101.5t37.5 -64.5q9 -6 17 -6q25 0 32 35h-14v20h39q-3 -38 -18.5 -55.5t-34.5 -18.5h-3v-20h1q14 0 18 -53q1 -7 1 -20q0 -35 -19 -38l-55 1v19l53 -1v76h-17v38q-34 11 -52.5 64t-18.5 123 q0 125 46 183q17 23 48 23q18 0 29 -11v13h20v-66z"/>
<glyph glyph-name="egrave" horiz-adv-x="152" unicode="è" d="M125 238h-20v18h-62v-202h75v34h21v-53h-139v19h19v202h-19v20h19v137h-19v19h139v-49h-21v30h-75v-137h62v18h20v-56zM66 521l39 -73h-13l-46 73h20z"/>
<glyph glyph-name="eacute" horiz-adv-x="152" unicode="é" d="M104 487l6 -12l-63 -15l-5 12zM125 238h-20v18h-62v-202h75v34h21v-53h-139v19h19v202h-19v20h19v137h-19v19h139v-49h-21v30h-75v-137h62v18h20v-56z"/>
<glyph glyph-name="edieresis" horiz-adv-x="152" unicode="ë" d="M101 446q-15 0 -15 15q0 16 15 16q6 0 11 -5t5 -11q0 -15 -16 -15zM49 446q-15 0 -15 15q0 16 15 16q6 0 11 -5t5 -11q0 -15 -16 -15zM125 238h-20v18h-62v-202h75v34h21v-53h-139v19h19v202h-19v20h19v137h-19v19h139v-49h-21v30h-75v-137h62v18h20v-56z"/>
<glyph glyph-name="igrave" horiz-adv-x="74" unicode="ì" d="M44 413v-356h20v-22h-64v22h20v356h-20v19h64v-19h-20zM4 512l39 -73h-13l-46 73h20z"/>
<glyph glyph-name="iacute" horiz-adv-x="74" unicode="í" d="M65 481l6 -12l-63 -15l-5 12zM44 413v-356h20v-22h-64v22h20v356h-20v19h64v-19h-20z"/>
<glyph glyph-name="idieresis" horiz-adv-x="74" unicode="ï" d="M63 446q-15 0 -15 15q0 16 15 16q6 0 11 -5t5 -11q0 -15 -16 -15zM11 446q-15 0 -15 15q0 16 15 16q6 0 11 -5t5 -11q0 -15 -16 -15zM44 413v-356h20v-22h-64v22h20v356h-20v19h64v-19h-20z"/>
<glyph glyph-name="oacute" horiz-adv-x="169" unicode="ó" d="M112 489l6 -12l-63 -15l-5 12zM22 241q0 -84 16 -135t43 -51t43 51t16 135q0 80 -14.5 126t-42.5 46h-2q-59 -3 -59 -172zM0 241q0 188 80 191h2q30 0 48.5 -34t24 -73.5t5.5 -83.5q0 -101 -21 -153.5t-59 -52.5q-37 0 -58.5 53t-21.5 153z"/>
<glyph glyph-name="otilde" horiz-adv-x="169" unicode="õ" d="M152 493v-19q-22 -15 -45 -15q-4 0 -23.5 12t-24.5 12q-18 0 -43 -18v19q22 16 44 16l12 -6q13 -7 24.5 -13t11.5 -5q17 0 44 17zM22 241q0 -84 16 -135t43 -51t43 51t16 135q0 80 -14.5 126t-42.5 46h-2q-59 -3 -59 -172zM0 241q0 188 80 191h2q30 0 48.5 -34t24 -73.5 t5.5 -83.5q0 -101 -21 -153.5t-59 -52.5q-37 0 -58.5 53t-21.5 153z"/>
<glyph glyph-name="odieresis" horiz-adv-x="169" unicode="ö" d="M110 446q-15 0 -15 15q0 16 15 16q6 0 11 -5t5 -11q0 -15 -16 -15zM58 446q-15 0 -15 15q0 16 15 16q6 0 11 -5t5 -11q0 -15 -16 -15zM22 241q0 -84 16 -135t43 -51t43 51t16 135q0 80 -14.5 126t-42.5 46h-2q-59 -3 -59 -172zM0 241q0 188 80 191h2q30 0 48.5 -34 t24 -73.5t5.5 -83.5q0 -101 -21 -153.5t-59 -52.5q-37 0 -58.5 53t-21.5 153z"/>
<glyph glyph-name="ugrave" horiz-adv-x="171" unicode="ù" d="M44 413v-312q0 -25 8.5 -35t28.5 -10q21 0 30 10t9 35v312h-20v19h64v-19h-20v-312q0 -66 -63 -66q-61 0 -61 66v312h-20v19h64v-19h-20zM52 521l39 -73h-13l-46 73h20z"/>
<glyph glyph-name="uacute" horiz-adv-x="171" unicode="ú" d="M113 489l6 -12l-63 -15l-5 12zM44 413v-312q0 -25 8.5 -35t28.5 -10q21 0 30 10t9 35v312h-20v19h64v-19h-20v-312q0 -66 -63 -66q-61 0 -61 66v312h-20v19h64v-19h-20z"/>
<glyph glyph-name="udieresis" horiz-adv-x="171" unicode="ü" d="M111 446q-15 0 -15 15q0 16 15 16q6 0 11 -5t5 -11q0 -15 -16 -15zM59 446q-15 0 -15 15q0 16 15 16q6 0 11 -5t5 -11q0 -15 -16 -15zM44 413v-312q0 -25 8.5 -35t28.5 -10q21 0 30 10t9 35v312h-20v19h64v-19h-20v-312q0 -66 -63 -66q-61 0 -61 66v312h-20v19h64v-19 h-20z"/>
<glyph glyph-name="tilde" horiz-adv-x="191" unicode="˜" d="M148 493v-19q-22 -15 -45 -15q-4 0 -23.5 12t-24.5 12q-17 0 -43 -18v19q22 16 44 16l12 -6q13 -7 24.5 -13t11.5 -5q17 0 44 17z"/>
<glyph glyph-name="endash" horiz-adv-x="133" unicode="–" d="M111 244h-99v16h99v-16z"/>
<glyph glyph-name="emdash" horiz-adv-x="276" unicode="—" d="M257 244h-245v16h245v-16z"/>
<glyph glyph-name="quoteleft" horiz-adv-x="52" unicode="‘" d="M19 475h13l12 -63h-13z"/>
<glyph glyph-name="quotedblleft" horiz-adv-x="97" unicode="“" d="M18 475h13l15 -63h-13zM49 475h13l15 -63h-13z"/>
<glyph glyph-name="quotedblright" horiz-adv-x="90" unicode="”" d="M64 475h13l-15 -63h-13zM33 475h13l-15 -63h-13z"/>
<glyph glyph-name="dagger" horiz-adv-x="150" unicode="†" d="M67 225h-32v19h32v232h15v-232h33v-19h-33v-222h-15v222z"/>
<glyph glyph-name="daggerdbl" horiz-adv-x="150" unicode="‡" d="M67 198h-32v19h32v31h-32v19h32v209h15v-209h33v-19h-33v-31h33v-19h-33v-195h-15v195z"/>
<glyph glyph-name="guilsinglleft" horiz-adv-x="154" unicode="‹" d="M134 297l-2 -17l-113 -76l115 -73v-18l-132 83v17z"/>
<glyph glyph-name="guilsinglright" horiz-adv-x="156" unicode="›" d="M4 280l-2 17l132 -84v-17l-132 -83v18l115 73z"/>
<glyph glyph-name="Euro" horiz-adv-x="155" unicode="€" d="M117 248v19h-4v96q0 22 -10 33.5t-25 11.5t-26.5 -12t-11.5 -33v-96h-3v-19h3v-31h-3v-19h3v-105q0 -21 10 -32.5t24 -11.5q15 0 27 12t12 32v105h4v19h-4v31h4zM19 93v270q0 29 18.5 45.5t42.5 16.5q23 0 38.5 -14.5t15.5 -42.5v-281q0 -24 -19.5 -41t-43.5 -17 q-22 0 -37 16t-15 48zM113 217h-73v-19h73v19zM113 267h-73v-19h73v19z"/>
<glyph glyph-name="minus" horiz-adv-x="432" unicode="−" d="M410 244h-398v16h398v-16z"/>
</font>
</defs>
</svg>
